2015 The SpongeBob Movie Sponge Out of Water 2015 CamRip XviD-FANTA
3.712 vistas

  • Information
  • Trailer

N/A Sinopsis de The SpongeBob Movie Sponge Out of Water 2015 CamRip XviD-FANTA (2015)

 

Plot: During a fight between the Krusty Krab and Plankton, the secret formula disappears and all of Bikini Bottom goes into a terrible apocalypse. The Bikini Bottomites go crazy and they all believe that Spongebob and Plankton stole the secret formula. The two new teammates create a time machine to get the secret formula before it disappears and also go to some weird places along the way including a time paralex where they meet a time wizard named Bubbles who is a dolphin. The two later get to the time when the formula disappeared and take it back to the present day time. They then realized that it’s a fake formula Plankton made when he was taking the real one and the Bikini Bottomites try to destroy Spongebob (Plankton runs away) Spongebob smells Krabby patties and so does everyone else so the Bikini Bottomites follow it (instead of destroying Spongebob) and they arrive at the bank of the surface. Everyone except Spongebob, Patrick, Mr. Krabs, Squidward, Sandy, and a stowaway Plankton go …

 

Genre: Animation | Adventure | Comedy | Family
IMDB Rating: 6.9/10 from 4,815 users Metascore: 63/100
Directed by: Paul Tibbitt
Starring: Tom Kenny, Antonio Banderas, Bill Fagerbakke

 

Links: iMDB | Trailer

Director: Paul Tibbitt
Writers: Glenn Berger (screenplay), Jonathan Aibel (screenplay)
Stars: Tom Kenny, Antonio Banderas, Bill Fagerbakke
Genres: Animation | Adventure | Comedy | Family
Country: USA
Language: English

Format : AVI
Format/Info : Audio Video Interleave
File size : 1.21 GiB
Duration : 1h 23mn
Overall bit rate : 2 092 Kbps
Writing application : AVI-Mux GUI 1.17.8.3, Feb 16 201019:42:50
Writing library : VirtualDub build 32842/release

Video
ID : 0
Format : MPEG-4 Visual
Format profile : Advanced [email protected]
Format settings, BVOP : 2
Format settings, QPel : No
Format settings, GMC : No warppoints
Format settings, Matrix : Default (H.263)
Muxing mode : Packed bitstream
Codec ID : XVID
Codec ID/Hint : XviD
Duration : 1h 23mn
Bit rate : 1 891 Kbps
Width : 640 pixels
Height : 352 pixels
Display aspect ratio : 16:9
Frame rate : 23.976 fps
Color space : YUV
Chroma subsampling : 4:2:0
Bit depth : 8 bits
Scan type : Progressive
Compression mode : Lossy
Bits/(Pixel*Frame) : 0.350
Stream size : 1.10 GiB (90%)
Writing library : XviD 64

Audio
ID : 1
Format : AC-3
Format/Info : Audio Coding 3
Mode extension : CM (complete main)
Format settings, Endianness : Big
Codec ID : 2000
Duration : 1h 23mn
Bit rate mode : Constant
Bit rate : 192 Kbps
Channel(s) : 2 channels
Channel positions : Front: L R
Sampling rate : 44.1 KHz
Bit depth : 16 bits
Compression mode : Lossy
Stream size : 114 MiB (9%)
Alignment : Split accross interleaves
Interleave, duration : 42 ms (1.00 video frame)
Interleave, preload duration : 500 ms

image
image
image
image
image
image
image
image
image
image


estadisticas