2015 The Revenant 2015 DVDSCR x264 AC3 TiTAN
4.364 vistas

  • Information
  • Trailer
The Revenant 2015 DVDSCR x264 AC3 TiTAN (2015)

Rating IMDb N/A/10 - N/A votos

Original title The Revenant

Duration 156 min

Year

Release 08 Jan 2016

Origin USA

Languages English

Director

Script , ,

Awards N/A

genre adventure,drama,DVDScr,New Movies,Thriller

Cast , ,

R Sinopsis de The Revenant 2015 DVDSCR x264 AC3 TiTAN (2015)

http://www.imdb.com/title/tt1663202/

In the 1820s, a frontiersman named Hugh Glass sets out on a path of vengeance against those who left him for dead after a bear mauling.

Director: Alejandro González Iñárritu
Writers: Mark L. Smith (screenplay), Alejandro González Iñárritu (screenplay)
Stars: Tom Hardy, Leonardo DiCaprio, Domhnall Gleeson
Genres: Adventure | Drama | Thriller | Western
Country: USA
Language: English

Nice pre release DVDSCR here.. Enjoy and Merry Christmas

General

Unique ID: Format: Matroska
Format version: Version 2
File size: 1.94 GiB
Duration: 2h 36mn
Overall bit rate mode: Variable
Overall bit rate: 1 776 Kbps

Video
ID: 1
Format: AVC
Format/Info: Advanced Video Codec
Format profile: [email protected]
Format settings, CABAC: Yes
Format settings, ReFrames: 3 frames
Codec ID: V_MPEG4/ISO/AVC
Duration: 2h 36mn
Bit rate mode: Variable
Bit rate: 1 356 Kbps
Maximum bit rate: 40.0 Mbps
Width: 720 pixels
Height: 304 pixels
Display aspect ratio: 2.35:1
Frame rate mode: Constant
Frame rate: 23.976 fps
Color space: YUV
Chroma subsampling: 4:2:0
Bit depth: 8 bits
Scan type: Progressive
Bits/(Pixel*Frame): 0.258
Stream size: 1.48 GiB (76%)
Default: Yes
Forced: No
Color primaries: BT.709
Transfer characteristics: BT.709
Matrix coefficients: BT.709

Audio
ID: 2
Format: AC-3
Format/Info: Audio Coding 3
Mode extension: CM (complete main)
Format settings, Endianness: Big
Codec ID: A_AC3
Duration: 2h 36mn
Bit rate mode: Constant
Bit rate: 384 Kbps
Channel(s): 6 channels
Channel positions: Front: L C R, Side: L R, LFE
Sampling rate: 48.0 KHz
Bit depth: 16 bits
Compression mode: Lossy
Stream size: 429 MiB (22%)
Language: English
Default: Yes

image
image
image
image
image

 

 

 


estadisticas