2016 The Legend of Tarzan 2016 HDTS XviD-VAiN
8.486 vistas

  • Information
  • Trailer

PG-13 Sinopsis de The Legend of Tarzan 2016 HDTS XviD-VAiN (2016)

http://www.imdb.com/title/tt0918940/

Tarzan, having acclimated to life in London, is called back to his former home in the jungle to investigate the activities at a mining encampment.

Director: David Yates
Writers: Adam Cozad (screenplay), Craig Brewer (screenplay)
Stars: Alexander Skarsgård, Rory J. Saper, Christian Stevens
Genres: Action | Adventure
Country: USA
Language: English

Basic Information
Format : AVI
Format/Info : Audio Video Interleave
File size : 1.47 GiB
Duration : 1h 45mn
Overall bit rate : 1 990 Kbps
Writing application : VirtualDubMod 1.5.10.2 (build 2540/release)
Writing library : VirtualDubMod build 2540/release

Video
ID : 0
Format : MPEG-4 Visual
Format profile : Advanced [email protected]
Format settings, BVOP : 2
Format settings, QPel : No
Format settings, GMC : No warppoints
Format settings, Matrix : Default (H.263)
Muxing mode : Packed bitstream
Codec ID : XVID
Codec ID/Hint : XviD
Duration : 1h 45mn
Bit rate : 1 786 Kbps
Width : 720 pixels
Height : 304 pixels
Display aspect ratio : 2.35:1
Frame rate : 30.000 fps
Color space : YUV
Chroma subsampling : 4:2:0
Bit depth : 8 bits
Scan type : Progressive
Compression mode : Lossy
Bits/(Pixel*Frame) : 0.272
Stream size : 1.32 GiB (90%)
Writing library : XviD 64

Audio
ID : 1
Format : MPEG Audio
Format version : Version 1
Format profile : Layer 3
Mode : Joint stereo
Mode extension : MS Stereo
Codec ID : 55
Codec ID/Hint : MP3
Duration : 1h 45mn
Bit rate mode : Constant
Bit rate : 192 Kbps
Channel(s) : 2 channels
Sampling rate : 48.0 KHz
Compression mode : Lossy
Stream size : 145 MiB (10%)
Alignment : Aligned on interleaves
Interleave, duration : 33 ms (1.00 video frame)
Interleave, preload duratio : 504 ms

E N C O D E R S . N O T E S . . .

SOURCE……: ViDEO…X264-CPG
…………: AUDiO…X264-CPG
SAMPLE……: Yippers
ADDED NOTE..: Love Me…. Love You…
Took sum ol’ poo-shine and polished this turd….

C7EgPpk.pngCF6CwEA.pngRyIfEzV.png


estadisticas