2016 The.Land.2016.WEB-DL.x264-FGT
2.518 vistas

  • Information
  • Trailer
The.Land.2016.WEB-DL.x264-FGT (2016)

Rating IMDb 8.4/10 - 55 votos

Original title The Land

Duration 104 min

Year

Release 29 Jul 2016

Origin USA

Languages English

Director

Script

Awards N/A

genre 720P-1080P/WEB-DLL,drama,New Movies

Cast , ,

N/A Sinopsis de The.Land.2016.WEB-DL.x264-FGT (2016)

THE LAND tells the story of four teenage boys who devote their summer to escaping the streets of Cleveland, Ohio to pursue a dream life of professional skateboarding. But when they get … See full summary »

Video
ID : 1
Format : AVC
Format/Info : Advanced Video Codec
Format profile : [email protected]
Format settings, CABAC : Yes
Format settings, ReFrames : 5 frames
Codec ID : avc1
Codec ID/Info : Advanced Video Coding
Duration : 1h 41mn
Bit rate : 1 100 Kbps
Width : 720 pixels
Height : 304 pixels
Display aspect ratio : 2.40:1
Original display aspect ratio : 2.40:1
Frame rate mode : Constant
Frame rate : 23.976 (23976/1000) fps
Color space : YUV
Chroma subsampling : 4:2:0
Bit depth : 8 bits
Scan type : Progressive
Bits/(Pixel*Frame) : 0.210
Stream size : 788 MiB (89%)
Title : The.Land.2016.WEB-DL.x264-FGT

Language : English

Audio
ID : 2
Format : AAC
Format/Info : Advanced Audio Codec
Format profile : LC
Codec ID : 40
Duration : 1h 41mn
Duration_LastFrame : 43ms
Bit rate mode : Variable
Bit rate : 128 Kbps
Maximum bit rate : 31.3 Mbps
Channel(s) : 2 channels
Channel positions : Front: L R
Sampling rate : 48.0 KHz
Frame rate : 46.875 fps (1024 spf)
Compression mode : Lossy
Stream size : 93.1 MiB (11%)
Title : The.Land.2016.WEB-DL.x264-FGT
Language : English
Default : Yes
Alternate group : 1


estadisticas