2014 The Amazing Spider-Man 2 2014 HC Webrip x264 AC3 TiTAN
12.247 vistas

  • Information
  • Trailer

PG-13 Sinopsis de The Amazing Spider-Man 2 2014 HC Webrip x264 AC3 TiTAN (2014)

Peter Parker runs the gauntlet as the mysterious company Oscorp sends up a slew of super villains against him, impacting his life.

http://www.imdb.com/title/tt1872181/

General

Format                                   : Matroska
Format version                           : Version 2
File size                                : 1.45 GiB
Duration                                 : 2h 21mn
Overall bit rate mode                    : Variable
Overall bit rate                         : 1 464 Kbps
Encoded date                             : UTC 2014-07-17 17:48:02

Video
ID                                       : 1
Format                                   : AVC
Format/Info                              : Advanced Video Codec
Format profile                           : [email protected]
Format settings, CABAC                   : Yes
Format settings, ReFrames                : 3 frames
Codec ID                                 : V_MPEG4/ISO/AVC
Duration                                 : 2h 21mn
Bit rate mode                            : Variable
Bit rate                                 : 1 179 Kbps
Maximum bit rate                         : 40.0 Mbps
Width                                    : 720 pixels
Height                                   : 304 pixels
Display aspect ratio                     : 2.35:1
Frame rate mode                          : Constant
Frame rate                               : 24.000 fps
Color space                              : YUV
Chroma subsampling                       : 4:2:0
Bit depth                                : 8 bits
Scan type                                : Progressive
Bits/(Pixel*Frame)                       : 0.224
Stream size                              : 1.17 GiB (81%)

Audio
ID                                       : 2
Format                                   : AC-3
Format/Info                              : Audio Coding 3
Mode extension                           : CM (complete main)
Format settings, Endianness              : Big
Codec ID                                 : A_AC3
Duration                                 : 2h 21mn
Bit rate mode                            : Constant
Bit rate                                 : 256 Kbps
Channel(s)                               : 2 channels
Channel positions                        : Front: L R
Sampling rate                            : 44.1 KHz
Bit depth                                : 16 bits
Compression mode                         : Lossy
Stream size                              : 259 MiB (17%)
Default                                  : Yes
Forced                                   : No

 

Click To Resize

 

Click To Resize

 

Click To Resize

 

Click To Resize

Click To Resize


Deja un comentario

estadisticas