Star Wars The Last Jedi 2017 TeleSync AAC x264-MiniMe
3.555 vistas

  • Information
  • Trailer

Sinopsis de Star Wars The Last Jedi 2017 TeleSync AAC x264-MiniMe ()

Summary : Rey develops her newly discovered abilities with the guidance of Luke Skywalker, who is unsettled by the strength of her powers. Meanwhile, the Resistance prepares to do battle with the First Order.

IMDB : http://www.imdb.com/title/tt2527336/

Source : 😉

Notes : stripped subs and added some tweaks, enjoy 😉

Video Info
————

Format : AVC
Format/Info : Advanced Video Codec
Format profile : [email protected]
Format settings : CABAC / 3 Ref Frames
Format settings, CABAC : Yes
Format settings, ReFrames : 3 frames
Codec ID : avc1
Codec ID/Info : Advanced Video Coding
Duration : 2 h 23 min
Bit rate mode : Variable
Bit rate : 865 kb/s
Maximum bit rate : 40.0 Mb/s
Width : 720 pixels
Height : 288 pixels
Display aspect ratio : 2.500
Frame rate mode : Constant
Frame rate : 29.970 (30000/1001) FPS
Color space : YUV
Chroma subsampling : 4:2:0
Bit depth : 8 bits
Scan type : Progressive
Bits/(Pixel*Frame) : 0.139
Stream size : 887 MiB (87%)
Writing library : x264 core 152 r2851 ba24899

Audio Info
————

Format : AAC
Format/Info : Advanced Audio Codec
Format profile : LC
Codec ID : mp4a-40-2
Duration : 2 h 23 min
Bit rate mode : Variable
Bit rate : 128 kb/s
Maximum bit rate : 133 kb/s
Channel(s) : 2 channels
Channel positions : Front: L R
Sampling rate : 48.0 kHz
Frame rate : 46.875 FPS (1024 SPF)
Compression mode : Lossy
Stream size : 131 MiB (13%)

062648151ab36991efd96874d5a807a5.png
20e25032f91a84edb6ee2afd1408a02e.png
d2afcbe2294abeba202f28e23ee4deb5.png
c5f6f7e2df3e621bf30eea55af5ce5b5.png


estadisticas