2015 Justice League Throne of Atlantis 2015 DVDRIP X264 AC3-BHRG
4.146 vistas

  • Information
  • Trailer

PG-13 Sinopsis de Justice League Throne of Atlantis 2015 DVDRIP X264 AC3-BHRG (2015)

http://www.imdb.com/title/tt3878542/

When Atlantian troops assault Metropolis as revenge for the death of their king, the Queen seeks help from the Justice League to find her son who has gone missing during the madness.

Director: Ethan Spaulding
Writers: Jon Bogdanove (character created by: John Henry Irons), Heath Corson (screenplay)
Stars: Sean Astin, Rosario Dawson, Nathan Fillion
Genres: Animation | Action | Adventure | Sci-Fi
Country: USA
Language: English

INFO
Format: Matroska
Format version: Version 2
File size: 1.13 GiB
Duration: 1h 18mn
Overall bit rate: 2 044 Kbps

Video
ID: 1
Format: AVC
Format/Info: Advanced Video Codec
Format profile: [email protected]
Format settings, CABAC: Yes
Format settings, ReFrames: 5 frames
Codec ID: V_MPEG4/ISO/AVC
Duration: 1h 18mn
Bit rate: 1 556 Kbps
Nominal bit rate: 1 650 Kbps
Width: 720 pixels
Height: 400 pixels
Display aspect ratio: 16:9
Frame rate mode: Constant
Frame rate: 25.000 fps
Color space: YUV
Chroma subsampling: 4:2:0
Bit depth: 8 bits
Scan type: Progressive
Bits/(Pixel*Frame): 0.216
Stream size: 878 MiB (76%)
Default: Yes
Forced: No

Audio
ID: 2
Format: AC-3
Format/Info: Audio Coding 3
Mode extension: CM (complete main)
Format settings, Endianness: Big
Codec ID: A_AC3
Duration: 1h 18mn
Bit rate mode: Constant
Bit rate: 448 Kbps
Channel(s): 6 channels
Channel positions: Front: L C R, Side: L R, LFE
Sampling rate: 44.1 KHz
Bit depth: 16 bits
Compression mode: Lossy
Stream size: 253 MiB (22%)
Default: Yes
Forced: No
IMdb:http://www.imdb.com/title/tt3878542/
Source:

Justice.League.Throne.of.Atlantis.2015.PAL.DVDR-FFMS

Thanks

Sample Enclosed

Subtitles:SRT Format
English,Mandrain simplified,Polish,Portuguese & Romanian

image image image image image


estadisticas